osu file format v14

[General]
AudioFilename: Bravely you.mp3
AudioLeadIn: 1500
PreviewTime: 61074
Countdown: 0
SampleSet: Soft
StackLeniency: 0.7
Mode: 0
LetterboxInBreaks: 0
WidescreenStoryboard: 0

[Editor]
Bookmarks: 27574,61174
DistanceSpacing: 1.1
BeatDivisor: 4
GridSize: 32
TimelineZoom: 2.1

[Metadata]
Title:Bravely You (TV Size)
TitleUnicode:Bravely You (TV Size)
Artist:Lia
ArtistUnicode:Lia
Creator:Homura-
Version:Normal
Source:Charlotte
Tags:シャーロット key 麻枝准 maeda jun opening image-- meg shirakai kacha kiranagamatu alyce
BeatmapID:746800
BeatmapSetID:337527

[Difficulty]
HPDrainRate:4
CircleSize:3
OverallDifficulty:4
ApproachRate:5
SliderMultiplier:1.1
SliderTickRate:1

[Events]
//Background and Video events
Video,0,"video.avi",0,0
0,0,"bg.jpg",0,0
//Break Periods
//Storyboard Layer 0 (Background)
//Storyboard Layer 1 (Fail)
//Storyboard Layer 2 (Pass)
//Storyboard Layer 3 (Foreground)
//Storyboard Sound Samples

[TimingPoints]
574,400,4,2,2,60,1,0
1774,-100,4,2,3,60,0,0
2174,-100,4,2,2,60,0,0
4974,-100,4,2,3,60,0,0
5374,-100,4,2,2,60,0,0
6974,-99.9999999999999,4,2,2,55,0,0
7374,-99.9999999999999,4,2,1,55,0,0
11774,-99.9999999999999,4,2,3,55,0,0
12174,-99.9999999999999,4,2,1,55,0,0
22974,-99.9999999999999,4,2,2,55,0,0
23374,-99.9999999999999,4,2,1,55,0,0
48574,-100,4,2,2,55,0,0
59774,-100,4,2,1,60,0,0
61374,-100,4,2,2,65,0,1
61774,-100,4,2,1,65,0,1
73774,-100,4,2,1,60,0,0
74174,-100,4,2,2,65,0,1
74574,-100,4,2,1,65,0,1
86974,-100,4,2,2,65,0,1
87574,-100,4,2,1,65,0,1
87974,-100,4,2,1,65,0,1
88374,-100,4,2,1,65,0,0

[Colours]
Combo1 : 170,130,253
Combo2 : 128,255,255
Combo3 : 255,128,192
Combo4 : 255,255,128

[HitObjects]
124,115,574,6,0,B|153:89|192:81|227:89,1,110,12|8,0:0|3:2,0:0:0:0:
327,155,1374,1,8,3:2:0:0:
370,42,1774,1,4,3:2:0:0:
473,104,2174,2,0,B|485:160|485:160|470:210,1,110,10|10,3:2|3:2,0:0:0:0:
378,290,2974,2,0,B|334:274|286:292|263:330,1,110,8|8,3:2|3:2,0:0:0:0:
246,365,3574,1,0,0:0:0:0:
246,365,3774,6,0,L|121:359,1,110,10|8,3:2|3:2,0:0:0:0:
80,336,4374,1,2,3:2:0:0:
119,221,4774,2,0,L|111:152,2,55,2|6|2,0:0|3:2|0:0,0:0:0:0:
172,252,5374,2,0,L|297:258,1,110,8|8,3:2|3:2,0:0:0:0:
377,182,6174,2,0,B|408:218|411:267|391:305,1,110,8|0,3:2|3:0,0:0:0:0:
316,373,6974,5,12,0:0:0:0:
197,349,7374,2,0,L|123:358,2,55,10|2|4,3:2|0:0|3:2,0:0:0:0:
281,257,8174,2,0,L|207:248,1,55,8|2,3:2|0:0,0:0:0:0:
172,223,8574,2,0,B|138:244|98:245|64:231,1,110,4|8,3:2|3:2,0:0:0:0:
5,127,9374,2,0,B|38:105|78:103|112:118,1,110,4|8,3:2|3:2,0:0:0:0:
206,44,10174,5,4,3:2:0:0:
316,94,10574,2,0,L|373:88,2,55,10|2|4,3:2|0:0|3:2,0:0:0:0:
213,161,11374,2,0,L|156:155,1,55,8|2,3:2|0:0,0:0:0:0:
110,117,11774,2,0,B|84:146|78:186|90:220,1,110,4|8,3:2|3:2,0:0:0:0:
165,315,12574,1,6,3:2:0:0:
281,281,12974,1,10,3:2:0:0:
337,302,13174,1,2,3:2:0:0:
367,354,13374,5,4,3:2:0:0:
452,269,13774,2,0,L|512:265,2,55,10|2|4,3:2|0:0|3:2,0:0:0:0:
355,195,14574,2,0,B|325:169|286:162|251:171,2,110,8|4|8,3:2|3:2|3:2,0:0:0:0:
469,156,15774,2,0,L|464:46,1,110,4|10,3:2|3:2,0:0:0:0:
347,13,16574,5,4,3:2:0:0:
319,130,16974,2,0,L|264:133,2,55,10|2|4,3:2|3:2|3:2,0:0:0:0:
436,158,17774,1,8,3:2:0:0:
353,246,18174,2,0,L|227:254,1,110,4|8,3:2|3:2,0:0:0:0:
138,192,18974,1,6,3:2:0:0:
176,75,19374,2,0,B|158:83|138:84|121:80,1,55,10|0,3:2|3:0,0:0:0:0:
67,56,19774,6,0,B|29:195|29:195|50:277,1,220,6|4,3:2|3:2,0:0:0:0:
70,325,20774,2,0,B|103:303|141:298|176:308,1,110,2|2,0:0|0:0,0:0:0:0:
231,329,21374,2,0,L|236:219,1,110,6|10,3:2|3:2,0:0:0:0:
353,189,22174,1,6,3:2:0:0:
331,69,22574,1,10,3:2:0:0:
446,110,22974,6,0,B|470:142|477:181|469:216,1,110,14|8,3:2|3:2,0:0:0:0:
431,261,23574,1,2,3:2:0:0:
431,261,23774,2,0,L|312:258,1,110,6|10,3:2|3:2,0:0:0:0:
214,200,24574,2,0,B|192:235|192:278|209:312,2,110,4|8|4,3:2|3:2|3:2,0:0:0:0:
317,136,25774,1,8,3:2:0:0:
247,36,26174,6,0,L|356:33,1,110,4|10,3:2|3:2,0:0:0:0:
406,0,26774,1,2,3:2:0:0:
406,0,26974,2,0,B|388:34|386:73|398:106,1,110,4|8,3:2|3:2,0:0:0:0:
498,174,27774,2,0,B|491:305,1,110,4|8,3:2|3:2,0:0:0:0:
396,357,28574,1,4,3:2:0:0:
353,243,28974,1,10,3:2:0:0:
261,321,29374,6,0,B|237:293|230:264|230:238|236:215|236:215|219:233|184:237,1,165,4|2,3:2|3:2,0:0:0:0:
131,226,30174,2,0,L|124:102,1,110,4|8,3:2|3:2,0:0:0:0:
6,141,30974,2,0,L|-1:17,2,110,4|8|4,3:2|3:2|3:2,0:0:0:0:
88,231,32174,1,10,3:2:0:0:
125,116,32574,6,0,B|160:90|205:89|240:108,1,110,4|8,3:2|0:0,0:0:0:0:
281,212,33374,2,0,L|392:201,1,110,6|10,3:2|3:2,0:0:0:0:
421,83,34174,1,6,3:2:0:0:
502,172,34574,1,10,3:2:0:0:
432,271,34974,1,6,3:2:0:0:
477,382,35374,1,10,3:2:0:0:
358,365,35774,6,0,B|326:341|286:337|251:350,1,110,6|8,3:2|3:2,0:0:0:0:
198,376,36374,1,0,3:0:0:0:
198,376,36574,2,0,L|191:256,1,110,6|8,3:2|3:2,0:0:0:0:
283,187,37374,2,0,B|315:163|355:159|390:171,2,110,6|10|4,3:2|3:2|3:2,0:0:0:0:
191,266,38574,1,8,3:2:0:0:
168,146,38974,6,0,L|164:26,1,110,4|8,3:2|3:2,0:0:0:0:
112,67,39574,1,2,3:2:0:0:
112,67,39774,2,0,B|78:89|36:91|2:75,1,110,4|10,3:2|3:2,0:0:0:0:
3,197,40574,2,0,L|7:317,1,110,6|8,3:2|3:2,0:0:0:0:
34,360,41174,2,0,B|66:332|109:327|145:341,1,110,2|2,0:0|3:2,0:0:0:0:
192,314,41774,1,10,3:2:0:0:
299,370,42174,6,0,B|318:309|318:309|302:209,1,165,4|2,3:2|3:2,0:0:0:0:
252,173,42974,2,0,B|214:191|173:184|142:161,1,110,6|8,3:2|3:2,0:0:0:0:
46,99,43774,2,0,B|66:58|110:39|151:46,2,110,6|10|4,3:2|3:2|3:2,0:0:0:0:
36,221,44974,1,8,3:2:0:0:
93,327,45374,6,0,L|210:338,1,110,4|10,3:2|3:2,0:0:0:0:
254,305,45974,1,0,3:0:0:0:
276,248,46174,2,0,B|246:222|207:215|172:224,1,110,6|8,3:2|3:2,0:0:0:0:
106,120,46974,1,6,3:2:0:0:
141,4,47374,1,6,3:2:0:0:
257,39,47774,1,6,3:2:0:0:
222,155,48174,1,10,3:2:0:0:
106,120,48574,6,0,B|74:178|74:178|78:226,1,110,12|10,3:2|0:0,0:0:0:0:
164,306,49374,2,0,B|228:309|228:309|266:334,1,110,8|10,3:2|0:0,0:0:0:0:
383,361,50174,2,0,B|407:331|444:318|480:322,1,110,10|10,3:2|0:0,0:0:0:0:
426,213,50974,2,0,B|388:191|345:188|307:202,1,110,10|10,0:0|3:2,0:0:0:0:
273,160,51574,1,2,3:2:0:0:
273,160,51774,6,0,B|259:122|266:83|287:53,1,110,10|10,3:2|0:0,0:0:0:0:
404,24,52574,1,10,0:0:0:0:
476,120,52974,1,10,0:0:0:0:
419,227,53374,2,0,B|364:220|364:220|305:242,1,110,10|10,3:2|3:2,0:0:0:0:
195,267,54174,2,0,B|144:246|144:246|90:253,1,110,8|8,0:0|0:0,0:0:0:0:
35,229,54774,1,2,3:2:0:0:
35,229,54974,6,0,B|10:198|6:159|19:125,1,110,10|8,3:2|0:0,0:0:0:0:
113,49,55774,2,0,L|221:30,1,110,10|10,3:2|0:0,0:0:0:0:
305,116,56574,2,0,B|346:101|389:112|419:140,1,110,10|10,3:2|3:2,0:0:0:0:
341,232,57374,2,0,B|300:247|257:236|227:208,1,110,8|10,0:0|3:2,0:0:0:0:
193,174,57974,1,0,3:0:0:0:
193,174,58174,6,0,L|197:283,1,110,10|10,3:2|0:0,0:0:0:0:
275,376,58974,2,0,B|316:391|359:380|389:352,1,110,10|8,0:0|0:0,0:0:0:0:
476,288,59774,1,12,0:0:0:0:
489,167,60174,1,14,0:0:0:0:
430,59,60574,1,14,0:0:0:0:
315,21,60974,1,12,3:2:0:0:
256,35,61174,1,8,3:2:0:0:
211,75,61374,6,0,B|187:108|184:149|196:184,1,110,12|10,0:0|0:0,0:0:0:0:
225,231,61974,1,2,3:2:0:0:
225,231,62174,2,0,B|268:212|316:217|353:239,1,110,4|10,0:0|0:0,0:0:0:0:
389,208,62774,2,0,B|388:270|387:333,1,110,2|2,3:2|3:2,0:0:0:0:
361,372,63374,1,8,0:2:0:0:
243,341,63774,2,0,L|188:344,2,55,4|6|10,0:0|3:2|0:0,0:0:0:0:
328,254,64574,6,0,B|302:224|264:213|228:219,1,110,4|10,3:2|0:0,0:0:0:0:
179,256,65174,1,0,3:0:0:0:
179,256,65374,2,0,L|69:262,1,110,4|8,3:2|0:0,0:0:0:0:
13,285,65974,2,0,B|-2:238|-2:238|17:178,1,110,2|0,3:2|3:0,0:0:0:0:
49,129,66574,1,8,0:0:0:0:
49,129,66774,2,0,B|78:155|117:163|152:155,1,110,2|6,3:2|3:2,0:0:0:0:
208,133,67374,1,10,0:0:0:0:
123,46,67774,6,0,B|150:16|190:6|226:13,1,110,6|10,3:2|0:0,0:0:0:0:
293,110,68574,1,4,0:0:0:0:
346,82,68774,1,6,3:2:0:0:
406,84,68974,1,8,0:0:0:0:
477,181,69374,2,0,B|441:209|394:211|357:192,1,110,6|10,0:0|0:0,0:0:0:0:
252,186,70174,1,4,0:0:0:0:
192,185,70374,1,6,3:2:0:0:
139,213,70574,1,8,0:0:0:0:
220,302,70974,6,0,B|257:314|295:305|323:282,1,110,4|10,3:2|0:0,0:0:0:0:
440,313,71774,1,4,0:0:0:0:
425,255,71974,1,6,3:2:0:0:
442,198,72174,1,8,0:0:0:0:
410,80,72574,2,0,B|377:106|333:108|300:88,1,110,6|8,0:0|3:2,0:0:0:0:
206,23,73374,2,0,B|145:23|85:31,1,110,6|10,0:0|0:0,0:0:0:0:
42,58,73974,1,8,3:2:0:0:
42,58,74174,6,0,B|70:92|71:138|50:172,1,110,12|10,0:0|0:0,0:0:0:0:
12,203,74774,1,0,3:0:0:0:
12,203,74974,2,0,L|121:207,1,110,4|10,0:0|0:0,0:0:0:0:
169,243,75574,2,0,B|198:213|242:207|277:223,1,110,2|0,3:2|3:2,0:0:0:0:
326,245,76174,1,10,0:0:0:0:
387,140,76574,2,0,L|442:142,2,55,4|6|10,0:0|3:2|0:0,0:0:0:0:
266,130,77374,6,0,B|256:73|257:17,1,110,4|10,0:0|0:0,0:0:0:0:
211,63,77974,1,0,3:2:0:0:
211,63,78174,2,0,B|168:81|121:71|90:43,1,110,4|8,3:2|0:0,0:0:0:0:
59,15,78774,2,0,B|55:71|62:125,1,110,0|2,3:0|3:2,0:0:0:0:
40,181,79374,1,8,0:0:0:0:
40,181,79574,2,0,B|74:162|113:160|146:172,1,110,2|4,3:2|3:2,0:0:0:0:
197,204,80174,1,8,0:0:0:0:
158,318,80574,6,0,B|199:331|241:322|272:298,1,110,6|8,0:0|0:0,0:0:0:0:
369,245,81374,1,4,0:0:0:0:
428,241,81574,1,6,3:2:0:0:
484,264,81774,1,10,0:0:0:0:
495,143,82174,2,0,B|462:122|423:118|389:128,1,110,6|10,0:0|3:2,0:0:0:0:
280,177,82974,1,6,0:0:0:0:
271,119,83174,1,6,3:2:0:0:
289,61,83374,1,10,3:2:0:0:
170,87,83774,6,0,B|132:97|94:90|64:71,1,110,6|10,0:0|0:0,0:0:0:0:
92,188,84574,1,4,0:0:0:0:
101,246,84774,1,4,3:2:0:0:
83,304,84974,1,10,0:0:0:0:
199,334,85374,6,0,B|234:317|272:316|305:327,1,110,6|10,0:0|0:0,0:0:0:0:
388,238,86174,2,0,B|357:207|313:197|274:208,1,110,6|10,0:0|3:2,0:0:0:0:
180,148,86974,1,12,3:2:0:0:
180,148,87174,2,0,B|136:133|90:146|59:176,2,110,2|2|2,0:0|0:0|0:0,0:0:0:0:
287,90,88374,1,2,3:2:0:0:
